Law and Order SVU S17E17 HDTV x264-FLEET[rartv]

seeders: 22
leechers: 0
updated:
Added by z0n3212.58M in TV
Torrent verified. Downloaded 20,975 times.

DownloadFast Safe Anonymous
movies, software, shows...
Available in versions: 1080p720p480pHDTVWEBRipx264x265
Law and Order SVU S17E17 HDTV x264-FLEET[rartv] (Size: 243.63 MB)
  Law.and.Order.SVU.S17E17.HDTV.x264-FLEET.mp4 243.63 MB
  rarbg.com.txt 34 bytes
  Law.and.Order.SVU.S17E17.HDTV.x264-FLEET.nfo 696 bytes

Description


http://rarbg.to
Law.and.Order.SVU.S17E17.HDTV.x264-FLEET[rartv]

image
Screens :

image
Mediainfo :

Video
ID : 1
Format : AVC
Format/Info : Advanced Video Codec
Format profile : [email protected]
Format settings, CABAC : Yes
Format settings, ReFrames : 5 frames
Codec ID : avc1
Codec ID/Info : Advanced Video Coding
Duration : 41mn 16s
Bit rate : 703 Kbps
Width : 720 pixels
Height : 404 pixels
Display aspect ratio : 16:9
Frame rate mode : Constant
Frame rate : 23.976 (24000/1001) fps
Color space : YUV
Chroma subsampling : 4:2:0
Bit depth : 8 bits
Scan type : Progressive
Bits/(Pixel*Frame) : 0.101
Stream size : 208 MiB (85%)
Writing library : x264 core 148 r2665 a01e339
Encoding settings : cabac=1 / ref=5 / deblock=1:0:0 / analyse=0x3:0x113 / me=umh / subme=8 / psy=1 / psy_rd=1.00:0.00 / mixed_ref=1 / me_range=16 / chroma_me=1 / trellis=1 / 8x8dct=1 / cqm=0 / deadzone=21,11 / fast_pskip=1 / chroma_qp_offset=-2 / threads=13 / lookahead_threads=2 / sliced_threads=0 / nr=0 / decimate=1 / interlaced=0 / bluray_compat=0 / constrained_intra=0 / bframes=3 / b_pyramid=2 / b_adapt=2 / b_bias=0 / direct=3 / weightb=1 / open_gop=0 / weightp=2 / keyint=250 / keyint_min=23 / scenecut=40 / intra_refresh=0 / rc_lookahead=50 / rc=crf / mbtree=1 / crf=19.0 / qcomp=0.60 / qpmin=0 / qpmax=69 / qpstep=4 / ip_ratio=1.40 / aq=1:1.00
Encoded date : UTC 2011-09-08 11:43:25
Tagged date : UTC 2011-09-08 11:43:25
Color range : Limited
Matrix coefficients : BT.709

Audio
ID : 2
Format : AAC
Format/Info : Advanced Audio Codec
Format profile : LC
Codec ID : 40
Duration : 41mn 16s
Bit rate mode : Variable
Bit rate : 116 Kbps
Maximum bit rate : 192 Kbps
Channel(s) : 2 channels
Channel positions : Front: L R
Sampling rate : 48.0 KHz
Frame rate : 46.875 fps (1024 spf)
Compression mode : Lossy
Stream size : 34.3 MiB (14%)
Encoded date : UTC 2011-09-08 11:43:25
Tagged date : UTC 2011-09-08 11:43:25

Related Torrents

torrent name size files age seed leech

Sharing Widget


Download torrent
243.63 MB
seeders:19
leechers:1
Law and Order SVU S17E17 HDTV x264-FLEET[rartv]



To share this torrent use the code below and insert it into comments, status messages, forum posts or your signature.

Torrent: Law and Order SVU S17E17 HDTV x264-FLEET[rartv]

Trackers

tracker name
udp://tracker.openbittorrent.com:80/announce
udp://tracker.publicbt.com:80/announce
http://retracker.krs-ix.ru/announce
udp://tracker.coppersurfer.tk:6969/announce
http://tracker.aletorrenty.pl:2710/announce
udp://glotorrents.pw:6969/announce
http://tracker.mg64.net:6881/announce
http://glotorrents.com:6969/announce
µTorrent compatible trackers list

Locations

name
KickassTorrents
Torrent hash: 8EDC81CAE824964F48A15C89ADC62141A18F8042

All Comments

audio
9/10
video
9/10
please, leave only comments related to that torrent
Sign In

recommend and watch able thank you
audio: 9video: 9
thanks a lot
Thanks for the upload!
Great downloader, keep up the great work
audio: 9video: 9
Thank You!
audio: 9video: 9
Great job on this upload! Really nice sound and video! Thank you!
Show More All

User Opinions

woodguy8231, tooltec344022, Mallyda14008, coolpoete3486, NexusSix2074, weedoreen1269, doodoohead1147, GeronimoX912, zuluboy512, susitasj114 ... And 186 more
Report a bug Open chat
Sitemap